Slutever S02E03
WEBRip | MKV | 1920x1080 | English | H264 @ 3500 kbps | AAC @ 126 kbps | 22 min 38 s | 585 MiB
Subtitles: English
Genre: Comedy, Documentary
Sex writer Karley Sciortino looks up, down, and inside to discover female sexuality, gender, and love.

General
Unique ID : 177598313916395190796967 348223710965944 (0x859C30EAE8B4AC618DDF5 8F71115B0B8)
Complete name : ./f3c22aad8e6246fe82137133 911da5c5.mkv
Format : Matroska
Format version : Version 4 / Version 2
File size : 585 MiB
Duration : 22 min 38 s
Overall bit rate : 3 613 kb/s
Encoded date : UTC 2019-02-25 18:23:24
Writing application : mkvmerge v31.0.0 ('Dolores In A Shoestand') 64-bit
Writing library : libebml v1.3.6 + libmatroska v1.4.9

Video
ID : 2
Format : AVC
Format/Info : Advanced Video Codec
Format profile : High@L4
Format settings : CABAC / 4 Ref Frames
Format settings, CABAC : Yes
Format settings, RefFrames : 4 frames
Codec ID : V_MPEG4/ISO/AVC
Duration : 22 min 37 s
Bit rate : 3 500 kb/s
Width : 1 920 pixels
Height : 1 080 pixels
Display aspect ratio : 16:9
Frame rate mode : Constant
Frame rate : 23.976 (23976/1000) FPS
Color space : YUV
Chroma subsampling : 4:2:0
Bit depth : 8 bits
Scan type : Progressive
Bits/(Pixel*Frame) : 0.070
Stream size : 564 MiB (96%)
Writing library : x264 core 148 r2579M 73ae2d1
Encoding settings : cabac=1 / ref=2 / deblock=1:0:0 / analyse=0x3:0x113 / me=hex / subme=2 / psy=1 / psy_rd=1.00:0.00 / mixed_ref=0 / me_range=16 / chroma_me=1 / trellis=0 / 8x8dct=1 / cqm=0 / deadzone=21,11 / fast_pskip=1 / chroma_qp_offset=0 / threads=4 / lookahead_threads=1 / sliced_threads=0 / nr=250 / decimate=1 / interlaced=0 / bluray_compat=0 / stitchable=1 / constrained_intra=0 / bframes=3 / b_pyramid=2 / b_adapt=1 / b_bias=0 / direct=1 / weightb=1 / open_gop=0 / weightp=1 / keyint=250 / keyint_min=25 / scenecut=40 / intra_refresh=0 / rc_lookahead=10 / rc=2pass / mbtree=1 / bitrate=3500 / ratetol=1.0 / qcomp=0.60 / qpmin=5 / qpmax=69 / qpstep=4 / cplxblur=20.0 / qblur=0.5 / ip_ratio=1.40 / aq=1:1.00
Language : English
Default : Yes
Forced : No

Audio
ID : 1
Format : AAC
Format/Info : Advanced Audio Codec
Format profile : HE-AAC / LC
Format settings : Implicit
Codec ID : A_AAC-2
Duration : 22 min 38 s
Bit rate : 127 kb/s
Channel(s) : 2 channels
Channel positions : Front: L R
Sampling rate : 48.0 kHz / 24.0 kHz
Frame rate : 23.438 FPS (1024 SPF)
Compression mode : Lossy
Stream size : 20.5 MiB (4%)
Language : English
Default : Yes
Forced : No

Text
ID : 3
Format : UTF-8
Codec ID : S_TEXT/UTF8
Codec ID/Info : UTF-8 Plain Text
Duration : 22 min 26 s
Bit rate : 92 b/s
Count of elements : 554
Stream size : 15.2 KiB (0%)
Language : English
Default : No
Forced : No








Download link:
كود:
rapidgator_net: https://rapidgator.net/file/66fb5d0d141c06cfa512b636db0cc926/nb2wf.Slutever.S02E03.mkv.html nitroflare_com: http://nitroflare.com/view/C20DFB86FCC4C87/nb2wf.Slutever.S02E03.mkv
Links are Interchangeable - No Password - Single Extraction