Teen Titans Go! S05E21
WEBRip | MKV | 720x404 | English | H264 @ 729 kbps | AAC @ 125 kbps | 10 min 53 s | 66.8 MiB
Subtitles: English
Genre: Animation, Comedy
Robin, Starfire, Raven, Beast Boy and Cyborg return in all-new, comedic adventures. They may be super heroes who save the world every day ... but somebody still has to do the laundry!

General
Unique ID : 139000930171237517397137 535941373782923 (0x68929AF99F84E02AF540F 0C475A2EB8B)
Complete name : ./1821f6fa711d4c9f9377a2c7 355c3b6f.mkv
Format : Matroska
Format version : Version 4 / Version 2
File size : 66.8 MiB
Duration : 10 min 53 s
Overall bit rate : 858 kb/s
Encoded date : UTC 2019-02-25 19:36:41
Writing application : mkvmerge v29.0.0 ('Like It Or Not') 64-bit
Writing library : libebml v1.3.6 + libmatroska v1.4.9

Video
ID : 1
Format : AVC
Format/Info : Advanced Video Codec
Format profile : High@L3.1
Format settings : CABAC / 5 Ref Frames
Format settings, CABAC : Yes
Format settings, RefFrames : 5 frames
Codec ID : V_MPEG4/ISO/AVC
Duration : 10 min 53 s
Bit rate : 730 kb/s
Width : 720 pixels
Height : 404 pixels
Display aspect ratio : 16:9
Frame rate mode : Constant
Frame rate : 23.976 (24000/1001) FPS
Color space : YUV
Chroma subsampling : 4:2:0
Bit depth : 8 bits
Scan type : Progressive
Bits/(Pixel*Frame) : 0.105
Stream size : 56.8 MiB (85%)
Writing library : x264 core 157 r2935 545de2f
Encoding settings : cabac=1 / ref=5 / deblock=1:-3:-3 / analyse=0x3:0x113 / me=hex / subme=8 / psy=1 / psy_rd=1.00:0.15 / mixed_ref=1 / me_range=16 / chroma_me=1 / trellis=2 / 8x8dct=1 / cqm=0 / deadzone=21,11 / fast_pskip=1 / chroma_qp_offset=-3 / threads=13 / lookahead_threads=2 / sliced_threads=0 / nr=0 / decimate=1 / interlaced=0 / bluray_compat=0 / constrained_intra=0 / bframes=3 / b_pyramid=2 / b_adapt=2 / b_bias=0 / direct=3 / weightb=1 / open_gop=0 / weightp=2 / keyint=250 / keyint_min=23 / scenecut=40 / intra_refresh=0 / rc_lookahead=50 / rc=crf / mbtree=1 / crf=19.0 / qcomp=0.60 / qpmin=0 / qpmax=69 / qpstep=4 / ip_ratio=1.40 / aq=1:1.00
Language : English
Default : Yes
Forced : No
Color range : Limited
Matrix coefficients : BT.709

Audio
ID : 2
Format : AAC
Format/Info : Advanced Audio Codec
Format profile : LC
Codec ID : A_AAC-2
Duration : 10 min 53 s
Bit rate : 126 kb/s
Channel(s) : 2 channels
Channel positions : Front: L R
Sampling rate : 44.1 kHz
Frame rate : 43.066 FPS (1024 SPF)
Compression mode : Lossy
Stream size : 9.78 MiB (15%)
Language : English
Default : Yes
Forced : No

Text
ID : 3
Format : UTF-8
Codec ID : S_TEXT/UTF8
Codec ID/Info : UTF-8 Plain Text
Duration : 10 min 24 s
Bit rate : 137 b/s
Count of elements : 219
Stream size : 10.5 KiB (0%)
Language : English
Default : No
Forced : No







Download link:
كود:
rapidgator_net: https://rapidgator.net/file/20cc439d66f2147442366f3fe245bd7c/9g162.Teen.Titans.Go.S05E21.mkv.html nitroflare_com: http://nitroflare.com/view/8AF4DDB88471313/9g162.Teen.Titans.Go.S05E21.mkv
Links are Interchangeable - No Password - Single Extraction